Título original
House at the End of the Street
Año
2012
Duración
101 min.
País
Reino Unido Reino Unido
Director
Mark Tonderai
Guión
David Loucka, Jonathan Mostow
Música
Theo Green
Fotografía
Miroslaw Baszak
Reparto
Jennifer Lawrence, Elisabeth Shue, Max Thieriot, Nolan Gerard Funk, Gil Bellows, Krista Bridges, Allie MacDonald, James Thomas, Jonathan Malen, Jon McLaren, Joy Tanner
Productora
A Bigger Boat / FilmNation Entertainment / Relativity Media
Género
Thriller. Terror. Intriga
Sinopsis
Cuando una chica adolescente se muda junto a su madre a un nuevo pueblo, descubre que su casa esta frente a otra en la que tuvo lugar un doble asesinato. Las cosas comenzarán a complicarse cuando la joven se hace amiga de un chico que sobrevivió a la masacre… (FILMAFFINITY)
La casa al final de la calle (2012) – FilmAffinity








+ Video en Youtube


ERROR: O YouTubeesta caido o no tienes Flash instalado.












General

Format : AVI
Format/Info : Audio Video Interleave
File size : 1.11 GiB
Duration : 1h 36mn
Overall bit rate : 1 641 Kbps
Writing application : VirtualDubMod 1.5.10.2 (build 2540/release)
Writing library : VirtualDubMod build 2540/release

Video
ID : 0
Format : MPEG-4 Visual
Format profile : Simple@L3
Format settings, BVOP : No
Format settings, QPel : No
Format settings, GMC : No warppoints
Format settings, Matrix : Default (H.263)
Codec ID : XVID
Codec ID/Hint : XviD
Duration : 1h 36mn
Bit rate : 1 248 Kbps
Width : 720 pixels
Height : 304 pixels
Display aspect ratio : 2.35:1
Frame rate : 25.000 fps
Color space : YUV
Chroma subsampling : 4:2:0
Bit depth : 8 bits
Scan type : Progressive
Compression mode : Lossy
Bits/(Pixel*Frame) : 0.228
Stream size : 862 MiB (76%)
Writing library : XviD 1.2.1 (UTC 2008-12-04)

Audio
ID : 1
Format : AC-3
Format/Info : Audio Coding 3
Mode extension : CM (complete main)
Format settings, Endianness : Big
Codec ID : 2000
Duration : 1h 36mn
Bit rate mode : Constant
Bit rate : 384 Kbps
Channel(s) : 6 channels
Channel positions : Front: L C R, Side: L R, LFE
Sampling rate : 48.0 KHz
Bit depth : 16 bits
Compression mode : Lossy
Stream size : 265 MiB (23%)
Alignment : Split accross interleaves
Interleave, duration : 40 ms (1.00 video frame)
Interleave, preload duration : 500 ms




LINKS INTERDVDRipBIABLES



código:

Ahora pudes ver el contenido oculto. Gracias por acompañarnos !

http://junocloud.me/a5152g07e401/cc.DVD.papianton.part1.rar.html

http://junocloud.me/mt5n2fqk6jg1/cc.DVD.papianton.part2.rar.html

http://junocloud.me/ckfkq0ouawqj/cc.DVD.papianton.part3.rar.html

http://mega***********.com/dm1nccnr1dfm/cc.DVD.papianton.part1.rar

http://mega***********.com/h4sirx7ui4ri/cc.DVD.papianton.part2.rar

http://mega***********.com/7wfjtfdanj2k/cc.DVD.papianton.part3.rar

http://www.tusfiles.net/wfgfb2q9vkz6

http://www.tusfiles.net/sc252d8juopk

http://www.tusfiles.net/momo80phryie

http://***********/f6giurbr

http://***********/oy44u4i6

http://***********/e5j6iol3

http://***********.net/download/65402.67debeb2e4f14045a02428a42869/cc.DVD.papianton.part1.rar.html

http://***********.net/download/93013.93ca3eecc490f2afa54e07737eea/cc.DVD.papianton.part2.rar.html

http://***********.net/download/26719.256989a55ec47225457f6c6a0f96/cc.DVD.papianton.part3.rar.html

– 1 LINK –

http://***********.net/download/69019.6c499bc34529c8406e88a3306071/Casa.Calle.DVD.papianton.avi.html

http://***********/a3sk0j17


Descomprimir con Winrar